#TITLE:The Wizard's Last Rhymes;
#SUBTITLE:;
#ARTIST:Rhapsody;
#TITLETRANSLIT:;
#SUBTITLETRANSLIT:;
#ARTISTTRANSLIT:;
#CREDIT:;
#BANNER:Wizard's-ba.jpg;
#BACKGROUND:Wizard's-bg.jpg;
#LYRICSPATH:;
#CDTITLE:mus1cwhite.png;
#MUSIC:The Wizard's Last Rhymes.mp3;
#OFFSET:0.000;
#SAMPLESTART:11.940;
#SAMPLELENGTH:12.000;
#SELECTABLE:YES;
#BPMS:0.000=150.120;
#STOPS:;
#BGCHANGES:;
// cache tags:
#FIRSTBEAT:1.000;
#LASTBEAT:372.000;
#SONGFILENAME:Songs/Mus1c/The Wizard's Last Rhymes/wizard.sm;
#HASMUSIC:1;
#HASBANNER:1;
#MUSICLENGTH:149.376;
// end cache tags

//---------------dance-single - ----------------
#NOTES:
     dance-single:
     :
     Hard:
     11:
     1.000,1.000,1.000,1.000,0.823,722.000,163.000,179.000,0.000,38.000:
0000
0000
0020
0000
0000
2030
3000
0000
,
0000
0000
0002
0000
0000
0203
0300
0000
,
0000
0000
0002
0000
2003
3000
0020
0000
,
0230
0000
0302
2003
3020
0230
0302
2003
,
3020
0230
0302
0203
0320
2030
3002
0203
,
2300
3020
2130
0000
3002
0003
0102
0000
,
0023
0030
0201
0000
0302
0003
1020
0000
,
2030
3000
0000
0000
2200
3300
0202
0303
,
2002
3003
0100
0001
0100
1000
0010
0001
,
0100
0001
2220
0000
3330
0000
0101
0000
,
1100
0000
0222
0333
0000
1010
1010
0000
,
0000
0000
2022
0000
3033
0000
2202
3303
,
0110
0101
2220
0000
3330
0000
0000
0000
,
1010
0000
0222
0333
0000
0000
1010
0000
,
0011
0000
2022
3033
0000
0110
0101
0000
,
0000
0000
0000
0000
2202
0000
3303
0000
0100
0010
0100
0010
0100
0000
0000
0000
,
1001
0000
0000
0000
0110
0000
0100
0010
0001
0010
0100
1000
0100
0010
0001
0010
,
0100
0010
0002
0000
1003
0100
0010
0001
1000
0010
0100
0001
0010
0100
1000
0001
,
0010
0100
0010
0001
1000
0100
1000
0001
0100
1000
0010
0100
0001
0010
0100
1000
,
0001
0100
0010
1000
0001
0010
1000
0100
0010
1000
0001
0010
0100
0001
1000
0010
,
0100
0001
0010
0100
1000
0001
0010
1000
0001
0010
0100
1000
0100
0010
0001
0010
,
2000
0000
3200
0000
0310
0001
0100
1000
0100
0001
0010
1000
0001
0010
1000
0100
,
0010
0001
0100
0010
0100
0001
1000
0100
0001
0010
0100
1000
0010
0100
0001
0010
,
0100
0010
0100
0001
1000
0010
1000
0010
1000
0000
0000
0000
0110
0000
0000
0000
,
0110
0000
0000
0000
0001
0100
0001
0100
0001
0000
0000
0000
1010
0000
0000
0000
,
1010
0000
0000
0000
0010
0100
0010
0000
1001
0000
1001
0000
0010
1000
0010
0000
,
0101
0000
0101
0000
1000
0100
0010
0001
1000
0100
0010
0001
1000
0020
0000
0000
,
0000
0000
0000
0030
0000
0000
0000
0000
0000
0000
0000
0000
0001
0000
0010
0000
0100
0000
1000
0000
0001
0000
0010
0000
0100
0000
1000
0000
0100
0000
0011
0000
0000
0000
0000
0000
1010
0000
0000
0000
0000
0000
0010
0000
0000
1000
0000
0000
,
0010
0000
1000
0100
1000
0000
0001
0010
0001
0000
0010
0100
0010
0000
0100
0010
,
0100
0000
0001
1000
0001
0000
0010
0100
1002
0000
0000
0000
1103
0000
0001
1000
,
0001
0000
1000
0010
1000
0000
0100
0010
0100
0000
1000
0100
1000
0000
0001
0010
,
0001
0000
0100
0010
0100
0000
1000
0100
0012
0000
0000
0000
1013
0000
0001
0010
,
0100
0000
1000
0100
0010
0000
0100
0010
0001
0000
0010
0100
1000
0000
0010
0001
,
0100
0000
0001
1000
0010
0000
0100
1000
0210
0000
0000
0000
1301
0000
0001
1000
,
0001
0000
0001
0100
0001
0000
0001
0010
0001
0000
1000
0100
1000
0000
1000
0100
,
1000
0000
1000
0001
1000
0000
0010
0100
0020
0000
0000
0000
0131
0000
1100
0010
,
0100
0000
1010
0100
0010
0000
1001
0010
0001
0000
0110
0001
1000
0000
0101
0010
,
0100
0000
0011
1000
0001
0000
0101
0010
2000
0000
0000
0000
3101
0000
0101
1000
,
0100
0000
1010
0001
0010
0000
0011
1000
0100
0000
1001
0010
0001
0000
1010
0100
,
0001
0000
1010
0001
0100
0000
0001
0100
1002
0000
0000
0000
1013
0000
0110
1000
,
0100
0000
1001
0010
0001
0000
1010
0100
1000
0000
0110
1000
0100
0000
0011
0100
,
0001
0000
1010
0100
0010
0000
0110
1000
0102
0000
0000
0000
1103
0000
0100
0010
,
0100
0000
1000
0100
1000
0000
0001
0010
0001
0000
0010
0100
0010
0000
0100
0010
,
0100
0000
0001
1000
0001
0000
0010
0100
2000
0000
0000
0000
3020
0000
0000
0000
,
0000
0000
0000
0000
0032
0000
2003
0000
0000
0000
0000
0000
0000
3002
0000
0000
,
0000
0023
0230
2300
3000
0000
1002
0000
,
0000
2003
0000
0000
0000
3200
0000
0000
0000
0302
0000
0000
0000
0023
0000
0000
,
0000
0000
2030
0000
0000
0000
0000
0000
0000
0000
0000
3200
0000
0000
0000
0000
0312
0000
0000
0000
0003
0000
0000
0000
0210
0000
0000
0000
0300
0000
0000
0000
,
0011
0011
0011
0000
0101
0101
0101
0000
,
1001
1001
1001
0000
1001
0000
0010
0010
,
0110
0100
0101
0001
1001
1000
1010
0010
,
0110
0100
0101
0001
1001
1000
1010
0010
,
1010
1000
1100
0100
0110
0010
0011
0001
,
1001
1000
1100
0100
0110
0010
0011
1000
,
0100
0010
1000
0100
0001
0100
2002
0000
,
0000
0000
0000
0000
3003
0000
1000
0001
,
0010
0100
0001
0010
0100
0001
2020
0000
,
0000
0000
0000
0000
3030
0000
0001
0100
,
0001
0010
0100
0001
0010
1000
0202
0000
,
0303
0000
0000
0000
0010
0100
0010
0100
0010
0100
0010
0000
0000
1010
0000
0001
,
0100
0001
0000
1000
0100
1000
0000
0010
0100
1000
0000
0100
0010
0001
0000
1000
,
0001
1000
0000
0001
1000
0001
0000
1000
0010
0100
0001
0010
0100
1000
0001
0010
,
0100
1000
0010
0100
0001
1000
0100
0010
1000
0001
0100
0001
2220
0000
0000
0000
,
3332
0003
0000
0000
2020
3030
2202
3303
,
0202
0303
0000
0000
0220
0330
2220
0000
,
3332
0003
2022
3033
0220
0330
2202
0000
,
3323
0030
0000
0022
2233
3300
2022
3033
,
0022
0033
0000
0000
0220
0330
0222
0333
,
2002
3003
0000
0000
2020
3030
2022
0033
,
0000
3020
2030
3002
,
0000
0000
0000
0000
0000
0000
0003
0000
0010
0100
0010
0100
0010
0001
0010
0100
1000
0001
0010
0100
1000
0000
1000
0000
,
1000
1000
1000
1000
0010
0010
0010
0010
0010
0010
0100
0100
,
0100
0100
0100
0100
0001
0001
0001
0001
0001
0001
1000
1000
,
1000
1000
1000
1000
0010
0010
0010
0010
0010
1000
1000
1000
,
1000
1000
1000
0100
0100
0100
0100
0100
0100
0100
0001
1010
,
0001
0110
1000
0100
0011
0100
1001
0010
1100
0001
1010
0100
,
0010
0001
0010
1100
0001
1000
0100
0001
0100
1000
0110
0001
,
0010
0100
1000
0100
0011
1000
0100
0010
1000
0001
0110
0001
,
0010
0100
0001
0010
1100
0001
0100
0010
0100
2010
0000
0000
,
0000
3020
0000
0032
,
0000
0000
0000
0203
0000
0000
0000
2301
,
0000
0000
0000
3002
0000
0000
0000
2003
,
0000
0000
0000
0000
0000
0000
3010
0100
0010
0100
0010
0100
2022
0000
0000
0000
,
3033
0000
0110
0000
1001
0000
2220
3330
,
0000
0110
0110
0000
0000
0000
2220
0000
,
3330
0000
2022
3033
1100
0101
2022
0000
,
3033
0000
0000
0000
1100
0000
2220
3330
,
0000
0000
1100
0000
0101
0000
2022
3033
,
1100
0000
0101
0000
0222
0000
0333
0000
0000
0000
0000
0000
1001
0010
0100
0010
,
0100
0000
0000
0000
1001
0000
0000
0000
1001
0000
0000
0000
0000
0001
1000
0001
,
1100
0000
0000
0000
1100
0000
0000
0000
0000
0000
0000
0000
0010
1000
0010
0000
,
1010
0000
1010
0000
1000
0010
1000
0000
0101
0000
0101
0000
0001
0010
0100
1000
,
0100
0010
0001
0010
2002
0000
0000
0000
0000
0000
0000
0000
0000
0000
0000
0000
,
3003
0000
0000
0000
;
